¿Por qué no se muestran las propiedades de los archivos MP4?

Estoy usando ubuntu 12.04. Tengo un video .mp4 para el cual quiero cambiar el reproductor multimedia predeterminado a vlc.

Cuando trato de ir a propiedades haciendo clic derecho en ese video.

introduzca la descripción de la imagen aquí

Recibo el siguiente mensaje. Cómo superar esto.

introduzca la descripción de la imagen aquí

Salida de mediainfo filename.mp4

 General Complete name : Interview with MIT Physics Professor Walter Lewin.mp4 Format : MPEG-4 Format profile : Base Media / Version 2 Codec ID : mp42 File size : 10.7 MiB Duration : 3mn 41s Overall bit rate mode : Variable Overall bit rate : 407 Kbps Encoded date : UTC 2008-10-16 15:15:29 Tagged date : UTC 2008-10-16 15:15:29 gsst : 0 gstd : 221656 gssd : B4A7D0A24HH1345230487367165 gshh : oo---preferred---hkg05s03---v14---lscache4.c.youtube.com Video ID : 2 Format : AVC Format/Info : Advanced Video Codec Format profile : Baseline@L1.1 Format settings, CABAC : No Format settings, ReFrames : 1 frame Codec ID : avc1 Codec ID/Info : Advanced Video Coding Duration : 3mn 41s Bit rate : 280 Kbps Maximum bit rate : 997 Kbps Width : 352 pixels Height : 288 pixels Display aspect ratio : 1.222 Frame rate mode : Constant Frame rate : 29.970 fps Standard : PAL Color space : YUV Chroma subsampling : 4:2:0 Bit depth : 8 bits Scan type : Progressive Bits/(Pixel*Frame) : 0.092 Stream size : 7.37 MiB (69%) Title : (C) 2007 Google Inc. v08.13.2007. Encoded date : UTC 2008-10-16 15:15:29 Tagged date : UTC 2008-10-16 15:15:29 Audio ID : 1 Format : AAC Format/Info : Advanced Audio Codec Format profile : LC Codec ID : 40 Duration : 3mn 41s Bit rate mode : Variable Bit rate : 125 Kbps Maximum bit rate : 280 Kbps Channel(s) : 2 channels Channel positions : Front: LR Sampling rate : 44.1 KHz Compression mode : Lossy Stream size : 3.30 MiB (31%) Title : (C) 2007 Google Inc. v08.13.2007. Encoded date : UTC 2008-10-16 15:15:29 Tagged date : UTC 2008-10-16 15:15:29 

  • Este es un error confirmado en la biblioteca Zeitgeist que proporciona información de archivos a las aplicaciones de Ubuntu (incluido Nautilus) y parece ocurrir con archivos MP4 descargados de Youtube, que están codificados con el perfil de nivel de línea de base 1.1 . No sucede con otros archivos MP4.
  • El archivo puede reproducirse en VLC pero eso no cuenta ya que VLC incluye internamente todos los códecs.
  • No hay una solución real para esto hasta que se solucione el error.
  • Para cambiar el reproductor predeterminado a VLC, simplemente hazlo desde uno de los otros archivos MP4 que funcionan, o sigue las instrucciones de esta respuesta .
  • Para mostrar miniaturas de estos videos, siga las instrucciones de esta respuesta .

Los pasos anteriores hacen que el reproductor VLC predeterminado sea efectivo y muestra las miniaturas correctamente para todos los videos (como se muestra a continuación):

introduzca la descripción de la imagen aquí

Este es el resultado de un error conocido en gstreamer que afecta a muchos videos de AVC, generalmente Baseline@L2.1, Baseline@L1.1, aunque quizás algunos otros. https://bugs.launchpad.net/ubuntu/+source/gst-plugins-bad0.10/+bug/973014

Respondido aquí en Askubuntu Totem no reproduce ciertos videos en 12.04

No ha habido ningún movimiento hacia la aplicación del compromiso upsteam ni en Ubuntu ni en Debian, la mejor solución es reconstruir el complemento defectuoso con el parche que proporcioné, aunque el traslado de libgstvideoparsersbad.so a un .bak proporcionará alivio.